le vortex de l'apocalypse Index du Forum
S’enregistrerRechercherFAQMembresGroupesConnexion


 Bienvenue 
Je rappelle aux membres de la guilde, que vous devez vous présenter dans la section "Présentation des guildeux". Merci
Pop Michael Jackson Greatest Hits 2CD 2008 FLAC Tracks Lo

 
Répondre au sujet    le vortex de l'apocalypse Index du Forum » Espace Guilde » Sortie Guilde Sujet précédent
Sujet suivant
Pop Michael Jackson Greatest Hits 2CD 2008 FLAC Tracks Lo
Auteur Message
branelbyr
Bouftounu

Hors ligne

Inscrit le: 02 Avr 2016
Messages: 99
Localisation: Marseille
Masculin
Cawotte(s): 111
Moyenne de points: 1,12
Level personnage principal: 0

Message Pop Michael Jackson Greatest Hits 2CD 2008 FLAC Tracks Lo Répondre en citant



(Pop) Michael Jackson Greatest Hits (2CD) 2008, FLAC (tracks), Lossless 1 > shurll.com/6wlrc























































(Pop) Michael Jackson Greatest Hits (2CD) 2008, FLAC (tracks), Lossless 1

985d112f2e
Michael Jackson - Can You Feel It 03:50 14(00:04:54) Michael Jackson - Billie Jean 5August 2009, 8:53Michael Jackson / Greatest HitsUsed drive : MATSHITADVD-RAM UJ862AS Adapter: 0 ID: 1Read mode : Secure Utilize accurate stream : Yes Defeat audio cache : Yes Make use of C2 pointers : NoRead offset correction : 102 Overread into Lead-In and Lead-Out : No Fill up missing offset samples with silence : Yes Delete leading and trailing silent blocks : No Null samples used in CRC calculations : Yes Used interface : Installed external ASPI interface Gap handling : Appended to previous trackUsed output format : User Defined Encoder Selected bitrate : 1024 kBit/s Quality : High Add ID3 tag : No Command line compressor : C:Program FilesFLACflac.exe Additional command line options : -8 -V -T "ARTIST=%a" -T "TITLE=%t" -T "ALBUM=%g" -T "DATE=%y" -T "TRACKNUMBER=%n" -T "GENRE=%m" -T "COMMENT=%e" %s -o %dTOC of the extracted CD Track Start Length Start sector End sector --------------------------------------------------------- 1 0:00.00 4:37.35 0 20809 2 4:37.35 4:06.06 20810 39265 3 8:43.41 4:14.74 39266 58389 4 12:58.40 4:53.39 58390 80403 5 17:52.04 4:56.09 80404 102612 6 22:48.13 6:44.70 102613 132982 7 29:33.08 5:56.63 132983 159745 8 35:29.71 4:00.43 159746 177788 9 39:30.39 4:15.48 177789 196961 10 43:46.12 5:11.39 196962 220325 11 48:57.51 3:42.62 220326 237037 12 52:40.38 4:43.62 237038 258324 13 57:24.25 4:39.41 258325 279290 14 62:03.66 4:18.32 279291 298672 15 66:22.23 5:29.35 298673 323382 16 71:51.58 3:23.06 323383 338613 17 75:14.64 4:39.52 338614 359590Track 1 Filename C:Documents and SettingsAdmin 01Smooth Criminal.flac -=- CDDA (100%) 10 -=- 10Heal the world.wav Peak level 100.0 % Track quality 100.0 % Test CRC D47E278C Copy CRC D47E278C Track not present in AccurateRip database Copy OKTrack 12 Filename C:Documents and SettingsAdmin 12Dangerous.wav Peak level 100.0 % Track quality 100.0 % Test CRC ADA1E8B8 Copy CRC ADA1E8B8 Track not present in AccurateRip database Copy OKNone of the tracks are present in the AccurateRip databaseNo errors occurredEnd of status report

02Happy (Love Theme From "Lady Sings The Blues") 3:25 5Tracklist:[6:03]Black Or White.wav Peak level 100.0 % Track quality 100.0 % Test CRC ECE425F4 Copy CRC ECE425F4 Track not present in AccurateRip database Copy OKTrack 4 Filename C:Documents and SettingsAdmin 0413(Pop) Michael Jackson - The Essential 2005 (2CD) (Japan) - 2005, FLAC (tracks+.cue), lossless1.1 GBWith A Child's Heart 3:32 2

malayali young couple indian sex xxx porn kamasutra.aviF2 Lance Photographer Magazine Vol.7 No.6.torrentTiffany Holiday Her First Anal Sex 8 avidownload map fight of characters 9.9 | added by users hitwindows 8 xTreame key.full.rarEnigma, Enigma - Love Sensuality Devotion: The Greatest Hits full album zipmission impossible 1habano st font free downloadpriyanka trivedi nude image2000 to 2012 rape videos in 3gp


Jeu 13 Juil - 01:58 (2017)
Publicité






Message Publicité
PublicitéSupprimer les publicités ?

Jeu 13 Juil - 01:58 (2017)
Montrer les messages depuis:    
Répondre au sujet    le vortex de l'apocalypse Index du Forum » Espace Guilde » Sortie Guilde Toutes les heures sont au format GMT + 2 Heures
Page 1 sur 1

 
Sauter vers: 

Portail | Index | Panneau d’administration | créer un forum | Forum gratuit d’entraide | Annuaire des forums gratuits | Signaler une violation | Conditions générales d'utilisation
Powered by phpBB © 2001, 2005 phpBB Group
Design by Freestyle XL / Music Lyrics.Traduction par : phpBB-fr.com